#TITLE:peerless;
#SUBTITLE:;
#ARTIST:Darin;
#TITLETRANSLIT:;
#SUBTITLETRANSLIT:;
#ARTISTTRANSLIT:;
#CREDIT:;
#BANNER:peerless-logo.jpg;
#BACKGROUND:peerless.jpg;
#LYRICSPATH:;
#CDTITLE:Lan.png;
#MUSIC:peerless.mp3;
#OFFSET:-0.020;
#SAMPLESTART:100.000;
#SAMPLELENGTH:12.000;
#SELECTABLE:YES;
#BPMS:0.000=105.040;
#STOPS:;
#BGCHANGES:;
// cache tags:
#FIRSTBEAT:4.000;
#LASTBEAT:256.500;
#SONGFILENAME:Songs/Super Dancer Online/peerless/peerless.sm;
#HASMUSIC:1;
#HASBANNER:1;
#MUSICLENGTH:146.145;
// end cache tags

//---------------dance-single - 标准----------------
#NOTES:
     dance-single:
     标准:
     Hard:
     8:
     0.731,0.724,1.000,0.007,0.294,548.000,198.000,1.000,0.000,1.000:


0000
0000
0000
0000
,
0010
1000
0000
0100
0010
0001
0010
0100
,
1000
0010
0000
0100
1000
0100
0010
0001
,
0010
0100
0000
0010
0001
0010
0100
1000
,
0100
0001
0000
0010
0100
1000
0010
0000
,
1000
0100
0011
0000
0000
0000
0100
0000
0010
0001
1100
0000
0010
0000
0100
0000
,
1000
0100
0011
0000
0000
0000
0010
0000
0100
0010
1100
0000
0010
0000
0100
0000
,
0010
0001
1100
0000
0000
0000
0010
0000
1000
0100
0011
0000
0100
0000
0010
0000
,
0001
0010
1100
0000
0000
0000
0100
0000
0010
0000
1000
0000
0001
0000
0000
0000
,
1010
0100
0011
0000
0100
0000
1010
0000
0100
0000
0011
0000
1010
0000
0100
0000
,
1001
0010
1100
0000
0010
0000
1000
0100
0011
0000
1010
0000
0101
0000
1010
0000
,
0101
0010
1100
0000
0010
0000
0101
0000
0010
0000
1001
0000
0110
0000
0100
0000
,
1001
0100
0011
0000
0100
0000
0010
0100
0000
1000
0010
0000
0101
0000
0010
0000
,
0101
0010
1100
0000
0001
0000
0100
0000
0010
0001
1100
0000
0010
0000
0000
0000
,
1001
0100
0011
0000
0100
0000
0010
0100
1000
0000
0101
0000
1010
0000
1001
0000
,
0101
0010
1100
0000
0010
0000
0001
0000
1000
0100
0011
0000
0100
0000
0000
0000
,
1001
0100
0011
0000
0100
0000
0010
0100
0000
1000
0010
0000
0101
0000
1010
0000
,
0101
0010
1100
0000
0001
0000
0100
0000
1000
0100
0011
0000
0100
0000
0000
0000
,
1001
0100
0011
0000
0100
0000
0010
0001
0100
0000
1010
0000
0101
0000
1010
0000
,
0011
0100
1000
0000
0010
0000
0100
0000
0010
0001
1100
0000
0010
0000
0000
0000
,
1001
0100
0011
0000
0100
0000
0010
0100
0000
0010
0001
0000
1010
0000
0101
0000
,
1001
0010
0100
0000
1000
0000
0010
0000
1000
0100
0011
0000
0100
0000
0000
0000
,
1100
0010
0001
0000
0100
0000
0010
0100
0010
0000
1100
0000
0101
0000
1001
0000
,
0011
0100
1000
0000
0010
0000
0100
0000
0010
0001
1100
0000
0010
0000
0000
0000
,
1001
0100
0010
0000
0100
0000
0001
0010
0000
0000
0000
0000
0100
0000
0000
0000
,
1001
0100
0011
0000
0100
0000
1010
0000
0100
0010
0101
0000
1010
0000
0100
0000
,
0011
0000
0100
0000
0010
0000
1000
0100
0001
0000
1010
0000
0101
0000
0110
0000
,
0101
0010
1100
0000
0010
0000
0101
0000
1000
0100
0011
0000
1010
0000
0100
0000
,
0011
0000
0100
0000
0010
0000
0100
1000
0100
0010
0001
0000
1010
0000
0100
0000
,
0011
0100
1010
0000
0100
0000
0011
0000
1000
0100
0011
0000
1010
0000
0100
0000
,
1001
0010
1100
0000
0010
0000
0100
0010
1001
0000
0110
0000
1010
0000
0110
0000
,
0101
0010
1100
0000
0010
0000
0110
0000
1000
0100
0011
0000
1010
0000
0100
0000
,
1001
0100
0011
0000
1100
0000
0100
0010
0001
0010
0100
0000
1010
0000
0110
0000
,
0011
0100
1000
0000
0010
0000
0100
0000
1000
0100
0011
0000
0100
0000
0000
0000
,
1001
0010
0100
0000
0010
0000
1000
0100
0010
0000
0100
0000
0011
0000
0100
0000
,
1010
0000
0100
1001
0000
0101
0010
0000
,
0011
0100
1000
0000
0010
0000
0100
0010
0001
0000
0100
0000
1010
0000
0100
0000
,
1011
0000
0100
1010
0000
0101
0010
0000
,
1100
0010
0001
0000
0100
0000
0010
0100
1000
0000
0100
0000
0011
0000
0100
0000
,
1020
0000
0000
0000
0100
0000
1000
0000
0000
0000
0100
0000
0001
0000
0000
0030
,
1001
0000
0000
0000
,
1100
0010
0001
0000
0000
0000
0100
0000
0001
0010
1100
0000
0010
0000
0100
0000
,
1010
0100
0010
0000
0000
0000
0001
0000
0010
0100
1010
0000
0100
0000
0010
0000
,
1001
0100
0010
0000
0000
0000
0010
0000
1000
0100
0011
0000
0100
0000
0010
0000
,
0101
0010
0100
0000
0010
0000
0000
0000
1000
0000
0010
0000
0100
0000
0000
0000
,
1001
0100
0011
0000
0100
0000
1010
0000
0001
0010
1100
0000
0101
0000
0010
0000
,
1001
0000
0100
0000
0010
0000
1000
0100
0001
0000
1010
0000
0101
0000
1010
0000
,
0101
0010
1000
0101
0010
1100
0011
0100
,
1010
0000
0100
0000
0010
0000
1000
0100
0010
0100
1000
0000
0101
0000
0010
0000
,
1001
0100
0010
1100
0010
0101
1010
0100
,
0011
0000
0100
0000
0010
0000
0100
0010
0001
0000
1010
0000
0101
0000
0011
0000
,
1001
0100
0010
1100
0001
0110
1001
0100
,
1010
0000
0100
0000
0011
0000
0100
0010
0001
0010
0100
0000
1010
0000
0110
0000
,
1001
0010
0100
1010
0100
0011
1010
0100
,
1001
0000
0010
0000
0100
0000
0001
0010
0100
0000
1010
0000
0110
0000
0101
0000
,
1010
0100
0001
1100
0010
0101
0011
0100
,
1001
0000
0100
0000
1010
0000
0100
0010
0001
0010
0100
0000
0011
0000
0110
0000
,
1001
0100
0010
0101
0010
0101
1100
0010
,
0101
0000
0010
0000
0100
0000
1000
0100
0010
0000
0101
0000
0011
0000
1010
0000
,
1001
0100
0010
1100
0010
0101
0011
0100
,
1001
0000
0100
0000
0010
0000
0100
0010
0001
0010
0100
0000
0011
0000
0100
0000
,
1010
0100
0001
1010
0100
1001
0011
0110
,
1010
0000
0100
0000
0001
0000
0010
0100
1000
0000
0101
0000
0011
0000
0110
0000
,
1001
0010
0100
1010
0100
0011
0110
1000
,
0100
0010
0000
0000
0000
0000
0000
0000
;
